message
Windows 11 Pro Retail Keys at $4.99 USD Only
Get Your Windows 11 activated at $4.99 only

Undercover S02

Likes 1 Dislikes 0
Seeders 9
Leechers 3
File Size 7.93 GB
Downloads 86
Uploaded Feb 24, 2021
Files
Trackers
More Info
FolderUndercover S02
FileUndercover S02 Trailer.mp4 - 24.2 MB
FileUndercover S02E01.mp4 - 770 MB
FileUndercover S02E02.mp4 - 786 MB
FileUndercover S02E03.mp4 - 778 MB
FileUndercover S02E04.mp4 - 761 MB
FileUndercover S02E05.mp4 - 804 MB
FileUndercover S02E06.mp4 - 798 MB
FileUndercover S02E07.mp4 - 807 MB
FileUndercover S02E08.mp4 - 816 MB
FileUndercover S02E09.mp4 - 821 MB
FileUndercover S02E10.mp4 - 763 MB
Tracker Seeder Leecher
udp://tracker.bitsearch.to:1337/announce 0 0
udp://www.torrent.eu.org:451/announce 4 0
udp://tracker.breizh.pm:6969/announce 0 0
udp://tracker.torrent.eu.org:451/announce 4 0
udp://tracker2.dler.com:80/announce 0 0
udp://tracker.moeking.me:6969/announce 4 0
udp://tracker.opentrackr.org:1337/announce 6 0
udp://fe.dealclub.de:6969/announce 0 0
udp://opentracker.i2p.rocks:6969/announce 0 0
udp://tracker.monitorit4.me:6969/announce 0 0
udp://pow7.com:80/announce 0 0
udp://tracker.zerobytes.xyz:1337/announce 0 0
udp://open.stealth.si:80/announce 3 0
udp://tracker.leech.ie:1337/announce 0 0
udp://p4p.arenabg.com:1337/announce 0 0
udp://vibe.sleepyinternetfun.xyz:1738/announce 0 0
udp://movies.zsw.ca:6969/announce 0 0
udp://tracker.blacksparrowmedia.net:6969/announce 0 0
udp://exodus.desync.com:6969/announce 4 0
udp://tracker.theoks.net:6969/announce 0 0
udp://explodie.org:6969/announce 0 0
udp://tracker.army:6969/announce 0 0
udp://bt1.archive.org:6969/announce 0 0
udp://bt2.archive.org:6969/announce 0 0
udp://tracker1.bt.moack.co.kr:80/announce 0 0
udp://tracker.dler.com:6969/announce 0 0
udp://9.rarbg.com:2920/announce 2 0
  • InfoHash: C1B163B8F449E1A714471ADFF7EC9EDE9CBCA1CE
  • Last Updated: Nov 19, 2022
  • File Count: 11
  • File Category: 3
  • Tags: undercover, belgium, belgie, politie, dutch, vrt, belgiumtv, TV, HD
This Torrent is seen on

Undercover S02 (2020) WEBRip HC [BrightShadow]

Source: 1337x

Uploaded By: BrightShadow

Undercover (2019)
IMDB - https://www.imdb.com/title/tt7263154
Movie DB - https://www.themoviedb.org/tv/86942-undercover
TVDB - https://www.thetvdb.com/series/undercover-nl

Poster


-----------------------------------------------------------------------------------

GENERAL INFO
Genre: Crime, Drama, Thriller
Stars: Tom Waes, Frank Lammers, Elise Schaap, Anna Drijver
Storyline: After the events of season one, Kim starts working at Human Rights. With help from former colleague Bob, her investigation into illegal Syrian weapons trade leads her to the El Dorado Ranch, a western horse ranch. Bob goes undercover to earn the trust of the brothers Berger, ranch owners & arms dealers. Meanwhile, Ferry Bouman continues his search for undercover agents Kim & Bob from jail…
Subtitles: Hard Coded (Dutch)

-----------------------------------------------------------------------------------

SCREENSHOTS


-----------------------------------------------------------------------------------

Contents
Undercover S02 Trailer.mp4

Undercover S02E01.mp4
Bob Lemmens komt enkele wapenhandelaars op het spoor

Undercover S02E02.mp4
De broers Berger laten al snel hun ware aard zien

Undercover S02E03.mp4
Polly graaft in het verleden van haar vader

Undercover S02E04.mp4
Nathalie staat voor een dilemma na een voorstel van Bob en Nick

Undercover S02E05.mp4
Bob probeert een deal te sluiten met Laurent en JP

Undercover S02E06.mp4
Bob probeert JP in de val te lokken

Undercover S02E07.mp4
Bob maakt drastische keuzes om de broers Berger te pakken

Undercover S02E08.mp4
Bob voelt de druk langs alle kanten toenemen

Undercover S02E09.mp4
Bob staat voor een groot dilemma tijdens het proces van Ferry Bouman

Undercover S02E10.mp4
Het komt tot een ultieme confrontatie

MEDIA INFO of S01E01
Format : MPEG-4
Format profile : Base Media
Codec ID : isom (isom/iso2/avc1/mp41)
File size : 734 MiB
Duration : 49 min 23 s
Overall bit rate mode : Variable
Overall bit rate : 2 078 kb/s
Writing application : Lavf58.33.100

Video
ID : 1
Format : AVC
Format/Info : Advanced Video Codec
Format profile : [email protected]
Format settings : CABAC / 2 Ref Frames
Format settings, CABAC : Yes
Format settings, Reference frames : 2 frames
Codec ID : avc1
Codec ID/Info : Advanced Video Coding
Duration : 49 min 23 s
Bit rate mode : Variable
Bit rate : 1 973 kb/s
Maximum bit rate : 3 000 kb/s
Width : 960 pixels
Height : 540 pixels
Display aspect ratio : 16:9
Frame rate mode : Variable
Frame rate : 25.000 FPS
Minimum frame rate : 11.364 FPS
Maximum frame rate : 90 000.000 FPS
Color space : YUV
Chroma subsampling : 4:2:0
Bit depth : 8 bits
Scan type : Progressive
Bits/(Pixel*Frame) : 0.152
Stream size : 697 MiB (95%)
Codec configuration box : avcC

Audio
ID : 2
Format : AAC LC
Format/Info : Advanced Audio Codec Low Complexity
Codec ID : mp4a-40-2
Duration : 49 min 23 s
Bit rate mode : Constant
Bit rate : 96.0 kb/s
Channel(s) : 2 channels
Channel layout : L R
Sampling rate : 48.0 kHz
Frame rate : 46.875 FPS (1024 SPF)
Compression mode : Lossy
Stream size : 33.9 MiB (5%)
Default : Yes
Alternate group : 1

Comments (0)
 

Write your comment

Did you like this torrent? [Optional]