message
Download Our Android APP
Download our Android app and stream Torrents and Anime Ad-free

Constantine (2014) Season 1 S01 (1080p BluRay x265 HEVC 10bit AAC 5.1 Langbard)

Likes 1 Dislikes 0
Seeders 14
Leechers 22
File Size 14.1 GB
Downloads 3609
Uploaded Oct 29, 2018
Files
Trackers
More Info
FolderConstantine (2014) Season 1 S01 (1080p BluRay x265 HEVC 10bit AAC 5.1 Langbard)
FileConstantine (2014) - S01E01 - Non Est Asylum (1080p BluRay x265 Langbard).mkv - 1.4 GB
FileConstantine (2014) - S01E02 - The Darkness Beneath (1080p BluRay x265 Langbard).mkv - 1.31 GB
FileConstantine (2014) - S01E03 - The Devil's Vinyl (1080p BluRay x265 Langbard).mkv - 1.02 GB
FileConstantine (2014) - S01E04 - A Feast of Friends (1080p BluRay x265 Langbard).mkv - 1.32 GB
FileConstantine (2014) - S01E05 - Danse Vaudou (1080p BluRay x265 Langbard).mkv - 1.13 GB
FileConstantine (2014) - S01E06 - The Rage of Caliban (1080p BluRay x265 Langbard).mkv - 1.06 GB
FileConstantine (2014) - S01E07 - Blessed are the Damned (1080p BluRay x265 Langbard).mkv - 1.26 GB
FileConstantine (2014) - S01E08 - The Saint of Last Resorts, Part 1 (1080p BluRay x265 Langbard).mkv - 716 MB
FileConstantine (2014) - S01E09 - The Saint of Last Resorts, Part 2 (1080p BluRay x265 Langbard).mkv - 1.01 GB
FileConstantine (2014) - S01E10 - Quid Pro Quo (1080p BluRay x265 Langbard).mkv - 863 MB
FileConstantine (2014) - S01E11 - A Whole World Out There (1080p BluRay x265 Langbard).mkv - 1.13 GB
FileConstantine (2014) - S01E12 - Angels and Ministers of Grace (1080p BluRay x265 Langbard).mkv - 860 MB
FileConstantine (2014) - S01E13 - Waiting for the Man (1080p BluRay x265 Langbard).mkv - 984 MB
Tracker Seeder Leecher
udp://tracker.bitsearch.to:1337/announce 0 0
udp://www.torrent.eu.org:451/announce 2 3
udp://9.rarbg.com:2920/announce 4 3
udp://tracker2.dler.com:80/announce 0 0
udp://tracker.0x.tf:6969/announce 0 0
udp://tracker.opentrackr.org:1337/announce 12 9
udp://fe.dealclub.de:6969/announce 0 0
udp://tracker.monitorit4.me:6969/announce 0 0
udp://open.stealth.si:80/announce 2 4
udp://pow7.com:80/announce 7 7
udp://p4p.arenabg.com:1337/announce 0 0
udp://tracker.leech.ie:1337/announce 0 0
udp://mts.tvbit.co:6969/announce 0 0
udp://vibe.sleepyinternetfun.xyz:1738/announce 0 0
udp://movies.zsw.ca:6969/announce 0 0
udp://opentracker.i2p.rocks:6969/announce 5 7
udp://tracker.moeking.me:6969/announce 1 0
udp://bubu.mapfactor.com:6969/announce 0 0
udp://tracker.theoks.net:6969/announce 0 0
udp://bt2.archive.org:6969/announce 0 0
udp://bt1.archive.org:6969/announce 0 0
udp://exodus.desync.com:6969/announce 1 4
udp://explodie.org:6969/announce 1 2
udp://tracker1.bt.moack.co.kr:80/announce 0 0
  • InfoHash: 7B3F4A2E336AFE1926A6FD6555795045300F22D2
  • Last Updated: Jun 18, 2022
  • File Count: 13
  • File Category: 3
  • Tags: horror, fantasy, drama, TV, HEVC/x265
This Torrent is seen on

Constantine (2014) Season 1 S01 (1080p BluRay x265 HEVC 10bit AAC 5.1 Langbard) [QxR]

Source: 1337x

Uploaded By: QxR



Media Information

Code:
General
Format : Matroska
Format version : Version 4 / Version 2
File size : 1.30 GiB
Duration : 43 min 5 s
Overall bit rate : 4 331 kb/s
Movie name : Constantine - S01E01 - Non Est Asylum
Encoded date : UTC 2018-02-10 12:35:54
Writing application : mkvmerge v15.0.0 ('Duel with the Devil') 64-bit
Writing library : libebml v1.3.5 + libmatroska v1.4.5
Writing frontend : StaxRip v1.7.0.0

Video
ID : 1
Format : HEVC
Format/Info : High Efficiency Video Coding
Format profile : Main [email protected]@Main
Codec ID : V_MPEGH/ISO/HEVC
Duration : 43 min 5 s
Bit rate : 3 846 kb/s
Width : 1 920 pixels
Height : 1 080 pixels
Display aspect ratio : 16:9
Frame rate mode : Constant
Frame rate : 23.976 (24000/1001) FPS
Color space : YUV
Chroma subsampling : 4:2:0
Bit depth : 10 bits
Bits/(Pixel*Frame) : 0.077
Stream size : 1.16 GiB (89%)
Writing library : x265 2.6+7-c373f947f086:[Windows][MSVC 1900][64 bit] 10bit+8bit
Encoding settings : cpuid=1105919 / frame-threads=3 / numa-pools=8 / wpp / no-pmode / no-pme / no-psnr / ssim / log-level=2 / input-csp=1 / input-res=1920x1080 / interlace=0 / total-frames=61980 / level-idc=0 / high-tier=1 / uhd-bd=0 / ref=5 / no-allow-non-conformance / no-repeat-headers / annexb / no-aud / no-hrd / info / hash=0 / no-temporal-layers / no-open-gop / min-keyint=23 / keyint=250 / bframes=8 / b-adapt=2 / b-pyramid / bframe-bias=0 / rc-lookahead=80 / lookahead-slices=4 / scenecut=40 / no-intra-refresh / ctu=32 / min-cu-size=8 / no-rect / no-amp / max-tu-size=16 / tu-inter-depth=2 / tu-intra-depth=2 / limit-tu=0 / rdoq-level=2 / dynamic-rd=0.00 / no-ssim-rd / signhide / no-tskip / nr-intra=0 / nr-inter=0 / no-constrained-intra / no-strong-intra-smoothing / max-merge=4 / limit-refs=3 / limit-modes / me=3 / subme=5 / merange=57 / temporal-mvp / weightp / weightb / no-analyze-src-pics / deblock=-2:-2 / no-sao / no-sao-non-deblock / rd=4 / no-early-skip / rskip / no-fast-intra / no-tskip-fast / no-cu-lossless / b-intra / no-splitrd-skip / rdpenalty=2 / psy-rd=1.50 / psy-rdoq=1.00 / no-rd-refine / analysis-reuse-mode=0 / no-lossless / cbqpoffs=0 / crqpoffs=0 / rc=crf / crf=22.0 / qcomp=0.80 / qpstep=4 / stats-write=0 / stats-read=0 / ipratio=1.40 / pbratio=1.30 / aq-mode=3 / aq-strength=1.00 / cutree / zone-count=0 / no-strict-cbr / qg-size=16 / no-rc-grain / qpmax=69 / qpmin=0 / no-const-vbv / sar=0 / overscan=0 / videoformat=5 / range=0 / colorprim=2 / transfer=2 / colormatrix=2 / chromaloc=0 / display-window=0 / max-cll=0,0 / min-luma=0 / max-luma=1023 / log2-max-poc-lsb=8 / vui-timing-info / vui-hrd-info / slices=1 / no-opt-qp-pps / no-opt-ref-list-length-pps / no-multi-pass-opt-rps / scenecut-bias=0.05 / no-opt-cu-delta-qp / no-aq-motion / no-hdr / no-hdr-opt / no-dhdr10-opt / analysis-reuse-level=5 / scale-factor=0 / refine-intra=0 / refine-inter=0 / refine-mv=0 / no-limit-sao / ctu-info=0 / no-lowpass-dct / refine-mv-type=0 / copy-pic=1
Default : Yes
Forced : No

Audio
ID : 2
Format : AAC
Format/Info : Advanced Audio Codec
Format profile : LC
Codec ID : A_AAC
Duration : 43 min 5 s
Bit rate : 429 kb/s
Channel(s) : 6 channels
Channel positions : Front: L C R, Side: L R, LFE
Sampling rate : 48.0 kHz
Frame rate : 46.875 FPS (1024 spf)
Compression mode : Lossy
Delay relative to video : 20 ms
Stream size : 132 MiB (10%)
Language : English
Default : No
Forced : No

Subtitle
ID : 3
Format : PGS
Muxing mode : zlib
Codec ID : S_HDMV/PGS
Codec ID/Info : Picture based subtitle format used on BDs/HD-DVDs
Duration : 42 min 29 s
Bit rate : 81.7 kb/s
Count of elements : 1456
Stream size : 24.8 MiB (2%)
Language : English
Default : No
Forced : No

Menu
00:00:00.000 : en:Chapter 01
00:01:04.647 : en:Chapter 02
00:10:52.735 : en:Chapter 03
00:21:47.848 : en:Chapter 04
00:26:53.903 : en:Chapter 05
00:33:07.402 : en:Chapter 06
00:42:27.711 : en:Chapter 07

Source Information

Code:
Release:
Unknown Source/NO-GROUP


Note From QxR:

Quote:
Whilst we are happy for our releases to be re-posted on a platform we aren't on, please do so in an 'as-is' format. We ask that you do not create a new torrent, include all descriptions you see above including the QxR logo, tags, notes and screenshots. If you'd like to become a permanent poster on a website we don't post to, feel free to get in contact with a QxR member.


Comments (0)
 

Write your comment

Did you like this torrent? [Optional]